Jump to content

I'm Groot

VIP
  • Content Count

    995
  • Joined

  • Days Won

    5

I'm Groot last won the day on March 5

I'm Groot had the most liked content!

About I'm Groot

  • Rank
    Real Groot

Recent Profile Visitors

16,715 profile views
  1. General Complete name : www.TamilBlasters.wiki - Nanban (2012)[4k 18GB seyons Bluray - Tamil].mkv Format : Matroska Format version : Version 4 File size : 17.8 GiB Duration : 3 h 0 min Overall bit rate : 14.2 Mb/s Movie name : @STR Encoded date : UTC 2022-04-20 14:35:45 Writing application : mkvmerge v62.0.0 ('Apollo') 64-bit Writing library : libebml v1.4.2 + libmatroska v1.6.4 / Lavf58.29.100 Video ID : 1 Format : VP9 Codec ID : V_VP9 Duration : 3 h 0 min Bit rate : 14.1 Mb/s Width : 3 840 pixels Height : 2 160 pixels Display aspect ratio : 16:9 Frame rate mode : Constant Frame rate : 25.000 FPS Color space : YUV Bits/(Pixel*Frame) : 0.068 Stream size : 17.7 GiB (99%) Title : www.TamilBlasters.wiki Default : Yes Forced : No Color range : Limited Color primaries : BT.709 Transfer characteristics : BT.709 Matrix coefficients : BT.709 Audio ID : 2 Format : Opus Codec ID : A_OPUS Duration : 3 h 0 min Bit rate : 128 kb/s Channel(s) : 2 channels Channel layout : L R Sampling rate : 48.0 kHz Frame rate : 50.000 FPS (960 SPF) Bit depth : 32 bits Compression mode : Lossy Stream size : 165 MiB (1%) Title : www.TamilBlasters.wiki Default : Yes Forced : No
  2. WE ARE NOW AVAILABLE ON THE TELEGRAM CHANNEL TO JOIN FOR THE LATEST UPDATES WE ARE ALSO AVAILABLE IN ANDROID APP! INSTALL NOW TO GET INSTANT UPDATES & BYPASS RESTRICTIONS Tidal Dolby Atmos (DDP5.1 + Dolby Atmos - 768Kbps) www.TamilBlasters.wiki - Why (The Musical) (2022) Complete Album Original HQ [Dolby Digital Plus with Dolby Atmos(768Kbps), with 5.1 bed] - A. R. Rahman Musical - 250MB
  3. WE ARE NOW AVAILABLE ON THE TELEGRAM CHANNEL TO JOIN FOR THE LATEST UPDATES WE ARE ALSO AVAILABLE IN ANDROID APP! INSTALL NOW TO GET INSTANT UPDATES & BYPASS RESTRICTIONS Tidal Dolby Atmos (DDP5.1 + Dolby Atmos - 768Kbps) www.TamilBlasters.buzz - Squid Game (Lets Play) (2021) English Complete Album Original HQ Dolby Atmos (DDP5.1 + Dolby Atmos - 768Kbps) with Bed - Various Artists Musical - 60MB
  4. WE ARE NOW AVAILABLE ON THE TELEGRAM CHANNEL TO JOIN FOR THE LATEST UPDATES WE ARE ALSO AVAILABLE IN ANDROID APP! INSTALL NOW TO GET INSTANT UPDATES & BYPASS RESTRICTIONS Tidal Dolby Atmos (DDP5.1 + Dolby Atmos - 768Kbps) www.TamilBlasters.buzz - Encanto (2021) English Complete Album Original HQ Dolby Atmos (DDP5.1 + Dolby Atmos - 768Kbps) with Bed - Lin-Manuel Miranda Musical - 700MB
  5. WE ARE NOW AVAILABLE ON THE TELEGRAM CHANNEL TO JOIN FOR THE LATEST UPDATES WE ARE ALSO AVAILABLE IN ANDROID APP! INSTALL NOW TO GET INSTANT UPDATES & BYPASS RESTRICTIONS FLAC(24Bit-48kHz) www.TamilBlasters.icu - Imaikkariye (From Selfie) (2022) Tamil Single Original HQ FLAC(24bit-48kHz) - G.V. Prakash Kumar Musical - 45MB MP3(320Kbps) www.TamilBlasters.icu - Imaikkariye (From Selfie) (2022) Tamil Single Original HQ MP3(320Kbps) - G.V. Prakash Kumar Musical - 8MB MP3(128Kbps) www.TamilBlasters.club - Imaikkariye (From "Selfie") (2022) Tamil Single Original HQ MP3(128Kbps) - G.V. Prakash Kumar Musical - 3MB
  6. WE ARE NOW AVAILABLE ON THE TELEGRAM CHANNEL TO JOIN FOR THE LATEST UPDATES WE ARE ALSO AVAILABLE IN ANDROID APP! INSTALL NOW TO GET INSTANT UPDATES & BYPASS RESTRICTIONS FLAC(24Bit-48kHz) www.TamilBlasters.icu - Inneram Indha Neram (2022) Tamil Single Original HQ FLAC(24bit-48kHz) - Vijai Bulganin Musical - 65MB MP3(320Kbps) www.TamilBlasters.icu - Inneram Indha Neram (2022) Tamil Single Original HQ MP3(320Kbps) - Vijai Bulganin Musical - 15MB MP3(128Kbps) www.TamilBlasters.club - Inneram Indha Neram (2022) Tamil Single Original HQ MP3(128Kbps) - Vijai Bulganin Musical - 5MB
  7. @Monkey D Luffy Wrong Turn அனைத்து பாகங்களையும் முடிந்தால் தமிழில் upload செய்யவும்..
  8. WE ARE NOW AVAILABLE ON THE TELEGRAM CHANNEL TO JOIN FOR THE LATEST UPDATES WE ARE ALSO AVAILABLE IN ANDROID APP! INSTALL NOW TO GET INSTANT UPDATES & BYPASS RESTRICTIONS FLAC(24Bit-48kHz) www.TamilBlasters.club - En Kadhal (From Andhagan) (2022) Tamil Single Original HQ FLAC(24bit-48kHz) - Santhosh Narayanan Musical - 50MB MP3(320Kbps) www.TamilBlasters.club - En Kadhal (From Andhagan) (2022) Tamil Single Original HQ MP3(320Kbps) - Santhosh Narayanan Musical - 10MB
×
×
  • Create New...